<?xml version="1.0" standalone="no"?>
<!DOCTYPE svg PUBLIC "-//W3C//DTD SVG 1.1//EN" "http://www.w3.org/Graphics/SVG/1.1/DTD/svg11.dtd" >
<svg xmlns="http://www.w3.org/2000/svg">
<metadata>Generated by IcoMoon</metadata>
<defs>
<font id="wing-icon" horiz-adv-x="1024">
<font-face units-per-em="1024" ascent="896" descent="-128" />
<missing-glyph horiz-adv-x="1024" />
<glyph unicode="&#x20;" horiz-adv-x="400" d="" />
<glyph unicode="&#xe900;" glyph-name="next_tryangle" horiz-adv-x="1250" d="M624.814 219.119l-624.814 329.763h1249.627z" />
<glyph unicode="&#xe901;" glyph-name="file_upload" d="M592 128h-160c-26.6 0-48 21.4-48 48v336h-175.4c-35.6 0-53.4 43-28.199 68.199l304.2 304.4c15 15 39.6 15 54.6 0l304.4-304.4c25.201-25.199 7.4-68.199-28.199-68.199h-175.4v-336c0-26.6-21.4-48-48-48zM1024 144v-224c0-26.6-21.4-48-48-48h-928c-26.6 0-48 21.4-48 48v224c0 26.6 21.4 48 48 48h272v-16c0-61.801 50.199-112 112-112h160c61.801 0 112 50.199 112 112v16h272c26.6 0 48-21.4 48-48zM776-32c0 22-18 40-40 40s-40-18-40-40 18-40 40-40 40 18 40 40zM904-32c0 22-18 40-40 40s-40-18-40-40 18-40 40-40 40 18 40 40z" />
<glyph unicode="&#xe902;" glyph-name="calendar" horiz-adv-x="896" d="M0-32v544h896v-544c0-53-43-96-96-96h-704c-53 0-96 43-96 96zM640 360v-80c0-13.199 10.801-24 24-24h80c13.199 0 24 10.801 24 24v80c0 13.199-10.801 24-24 24h-80c-13.199 0-24-10.801-24-24zM640 104v-80c0-13.199 10.801-24 24-24h80c13.199 0 24 10.801 24 24v80c0 13.199-10.801 24-24 24h-80c-13.199 0-24-10.801-24-24zM384 360v-80c0-13.199 10.801-24 24-24h80c13.199 0 24 10.801 24 24v80c0 13.199-10.801 24-24 24h-80c-13.199 0-24-10.801-24-24zM384 104v-80c0-13.199 10.801-24 24-24h80c13.199 0 24 10.801 24 24v80c0 13.199-10.801 24-24 24h-80c-13.199 0-24-10.801-24-24zM128 360v-80c0-13.199 10.801-24 24-24h80c13.199 0 24 10.801 24 24v80c0 13.199-10.801 24-24 24h-80c-13.199 0-24-10.801-24-24zM128 104v-80c0-13.199 10.801-24 24-24h80c13.199 0 24 10.801 24 24v80c0 13.199-10.801 24-24 24h-80c-13.199 0-24-10.801-24-24zM800 768c53 0 96-43 96-96v-96h-896v96c0 53 43 96 96 96h96v96c0 17.6 14.4 32 32 32h64c17.6 0 32-14.4 32-32v-96h256v96c0 17.6 14.4 32 32 32h64c17.6 0 32-14.4 32-32v-96h96z" />
<glyph unicode="&#xe903;" glyph-name="arrow_to_down" horiz-adv-x="896" d="M826.2 451l44.4-44.4c18.801-18.799 18.801-49.199 0-67.799l-388.6-388.8c-18.801-18.801-49.199-18.801-67.801 0l-388.798 388.8c-18.801 18.799-18.801 49.199 0 67.799l44.4 44.4c19 19 50 18.6 68.6-0.801l229.6-241v574.8c0 26.6 21.4 48 48 48h64c26.6 0 48-21.4 48-48v-574.8l229.6 241c18.6 19.602 49.6 20 68.6 0.801z" />
<glyph unicode="&#xe904;" glyph-name="error" d="M1008 384c0-273.984-222.080-496-496-496s-496 222.016-496 496c0 273.824 222.080 496 496 496s496-222.176 496-496zM512 284c-50.816 0-92-41.184-92-92s41.184-92 92-92 92 41.184 92 92-41.184 92-92 92zM424.64 614.688l14.848-272c0.704-12.736 11.232-22.688 23.968-22.688h97.088c12.736 0 23.264 9.952 23.968 22.688l14.848 272c0.736 13.76-10.208 25.312-23.968 25.312h-126.784c-13.76 0-24.704-11.552-23.968-25.312z" />
<glyph unicode="&#xe905;" glyph-name="search" d="M1016.992-41.792c9.408-9.408 9.408-24.608 0-34.016l-45.184-45.184c-9.408-9.408-24.608-9.408-34.016 0l-242.816 242.784c-4.384 4.608-7.008 10.592-7.008 16.992v26.4c-72.992-63.008-168-101.184-272-101.184-229.792 0-416 186.208-416 416s186.208 416 416 416 416-186.208 416-416c0-104-38.208-199.008-101.184-272h26.4c6.4 0 12.384-2.4 16.992-7.008zM416 160c176.8 0 320 143.2 320 320s-143.2 320-320 320-320-143.2-320-320 143.2-320 320-320z" />
<glyph unicode="&#xe906;" glyph-name="launch_link" d="M995.2 896c15.904 0 28.8-12.896 28.8-28.8l-0.352-326.4c0-15.904-12.896-28.8-28.8-28.8h-66.624c-15.904 0-28.8 12.896-28.8 28.8 0 0.192 0 0.384 0 0.576l5.44 147.264-4.128 4.128-557.728-557.728c-4.352-4.352-10.368-7.072-16.992-7.072s-12.64 2.688-16.992 7.072l-46.016 46.016c-4.352 4.352-7.072 10.368-7.072 16.992s2.688 12.64 7.072 16.992l557.728 557.728-4.128 4.128-147.264-5.44c-0.192 0-0.384 0-0.576 0-15.904 0-28.8 12.896-28.8 28.8v66.624c0 15.904 12.896 28.8 28.8 28.8zM864 320c17.664 0 32-14.336 32-32v-320c0-52.992-43.008-96-96-96h-704c-52.992 0-96 43.008-96 96v704c0 52.992 43.008 96 96 96h320c17.664 0 32-14.336 32-32v-32c0-17.664-14.336-32-32-32h-308c-6.624 0-12-5.376-12-12v-680c0-6.624 5.376-12 12-12h680c6.624 0 12 5.376 12 12v308c0 17.664 14.336 32 32 32h32z" />
<glyph unicode="&#xe907;" glyph-name="minus" horiz-adv-x="768" d="M736 448c17.664 0 32-14.304 32-32v-64c0-17.664-14.336-32-32-32h-704c-17.664 0-32 14.336-32 32v64c0 17.696 14.336 32 32 32h704z" />
<glyph unicode="&#xe908;" glyph-name="plus" horiz-adv-x="768" d="M736 448c17.664 0 32-14.304 32-32v-64c0-17.664-14.336-32-32-32h-288v-288c0-17.664-14.304-32-32-32h-64c-17.696 0-32 14.336-32 32v288h-288c-17.664 0-32 14.336-32 32v64c0 17.696 14.336 32 32 32h288v288c0 17.696 14.304 32 32 32h64c17.696 0 32-14.304 32-32v-288h288z" />
<glyph unicode="&#xe909;" glyph-name="phone_square_alt_secondary" horiz-adv-x="896" d="M800 832c52.992 0 96-43.008 96-96v-704c0-52.992-43.008-96-96-96h-704c-52.992 0-96 43.008-96 96v704c0 52.992 43.008 96 96 96h704zM767.232 217.248c0.512 2.176 0.8 4.416 0.8 6.752 0 12.352-7.488 22.976-18.176 27.584l-140 60c-3.616 1.568-7.616 2.432-11.808 2.432-9.376 0-17.728-4.288-23.232-11.040l-62.016-75.776c-97.408 45.952-175.616 124.16-221.568 221.568l75.776 62.016c6.72 5.504 11.008 13.888 11.008 23.232 0 4.192-0.864 8.16-2.4 11.808l-60 140c-4.576 10.688-15.2 18.176-27.552 18.176-2.336 0-4.608-0.256-6.784-0.768l-130.016-30.016c-13.312-3.072-23.264-14.976-23.264-29.216 0-320.576 260-580 580-580v0.032c14.24 0 26.176 9.92 29.248 23.232z" />
<glyph unicode="&#xe90a;" glyph-name="arrow_down" horiz-adv-x="640" d="M303.008 200.384l-296 293.6c-9.408 9.408-9.408 24.608 0 34.016l39.616 39.616c9.408 9.408 24.608 9.408 33.984 0l239.392-236.992 239.392 236.992c9.408 9.408 24.608 9.408 34.016 0l39.616-39.616c9.408-9.408 9.408-24.608 0-34.016l-296-293.6c-9.408-9.408-24.608-9.408-34.016 0z" />
<glyph unicode="&#xe90b;" glyph-name="arrow_left" horiz-adv-x="384" d="M8.416 400.992l293.6 296c9.408 9.408 24.608 9.408 34.016 0l39.616-39.584c9.408-9.408 9.408-24.608 0-34.016l-236.992-239.392 236.992-239.392c9.408-9.408 9.408-24.608 0-34.016l-39.616-39.616c-9.408-9.408-24.608-9.408-34.016 0l-293.6 296c-9.408 9.408-9.408 24.608 0 34.016z" />
<glyph unicode="&#xe90c;" glyph-name="arrow_right" horiz-adv-x="384" d="M375.616 367.008l-293.6-296c-9.408-9.408-24.608-9.408-34.016 0l-39.616 39.616c-9.408 9.408-9.408 24.608 0 34.016l236.992 239.392-236.992 239.392c-9.408 9.408-9.408 24.608 0 34.016l39.616 39.584c9.408 9.408 24.608 9.408 33.984 0l293.6-296c9.408-9.408 9.408-24.608 0-34.016z" />
<glyph unicode="&#xe90d;" glyph-name="arrow_up_circle" d="M512.399-128c-0.237 0-0.517-0.001-0.798-0.001-282.99 0-512.399 229.409-512.399 512.399s229.409 512.399 512.399 512.399c282.99 0 512.399-229.409 512.399-512.399 0-0.28 0-0.561-0.001-0.841v0.044c-0.904-282.185-229.416-510.696-511.514-511.601h-0.087zM512.399 802.619c-231.417 0-419.018-187.601-419.018-419.018s187.601-419.018 419.018-419.018c231.417 0 419.018 187.601 419.018 419.018v0c0 231.417-187.601 419.018-419.018 419.018v0zM698.363 337.309c-12.781 0.006-24.35 5.19-32.723 13.568l-153.241 153.241-153.241-153.241c-8.033-6.574-18.408-10.558-29.713-10.558-26.007 0-47.090 21.083-47.090 47.090 0 11.305 3.984 21.68 10.624 29.797l-0.067-0.084 185.964 185.964c8.504 8.418 20.206 13.618 33.122 13.618s24.619-5.201 33.126-13.622l185.96-185.96c8.192-8.462 13.241-20.010 13.241-32.737 0-25.611-20.446-46.447-45.906-47.075l-0.058-0.001zM512.399 151.345c-0.237-0.004-0.517-0.007-0.798-0.007-25.566 0-46.292 20.725-46.292 46.292 0 0.002 0 0.005 0 0.007v0 372.726c3.132 23.242 22.841 40.972 46.691 40.972s43.559-17.731 46.664-40.73l0.027-0.243v-372.726c0-25.566-20.725-46.292-46.292-46.292v0z" />
<glyph unicode="&#xe90e;" glyph-name="picture_as_pdf" d="M598 406v128h42v-128h-42zM170 640v-598h598v-84h-598q-34 0-59 25t-25 59v598h84zM384 490v44h42v-44h-42zM874 534v64h-128v-256h64v84h64v64h-64v44h64zM704 406v128q0 26-18 45t-46 19h-106v-256h106q28 0 46 19t18 45zM490 490v44q0 26-19 45t-45 19h-106v-256h64v84h42q26 0 45 19t19 45zM854 810q34 0 59-25t25-59v-512q0-34-25-60t-59-26h-512q-34 0-60 26t-26 60v512q0 34 26 59t60 25h512z" />
<glyph unicode="&#xe90f;" glyph-name="ng" d="M614.22 384l307.827 307.827c13.592 13.132 22.023 31.526 22.023 51.886 0 39.835-32.294 72.121-72.121 72.121-20.36 0-38.755-8.432-51.861-22.005l-0.024-0.025-307.827-307.827-307.827 307.827c-13.132 13.592-31.526 22.023-51.886 22.023-39.835 0-72.121-32.294-72.121-72.121 0-20.36 8.432-38.755 22.005-51.861l0.025-0.024 307.827-307.827-307.827-307.827c-12.524-12.955-20.235-30.624-20.235-50.097 0-39.835 32.294-72.121 72.121-72.121 19.473 0 37.142 7.72 50.123 20.259l-0.025-0.024 307.827 307.827 307.827-307.827c12.955-12.524 30.624-20.235 50.097-20.235 39.835 0 72.121 32.294 72.121 72.121 0 19.473-7.72 37.142-20.259 50.123l0.024-0.025z" />
<glyph unicode="&#xe910;" glyph-name="ok" d="M512-128c-282.77 0-512 229.23-512 512s229.23 512 512 512c282.77 0 512-229.23 512-512v0c0-282.77-229.23-512-512-512v0zM512 768c-212.077 0-384-171.923-384-384s171.923-384 384-384c212.077 0 384 171.923 384 384v0c0 212.077-171.923 384-384 384v0z" />
<glyph unicode="&#xe911;" glyph-name="eSIM" d="M0 440.875h455.125v455.125h-455.125zM113.792 782.208h227.541v-227.541h-227.541zM0-128h455.125v455.125h-455.125zM113.792 213.333h227.541v-227.541h-227.541zM568.875 896v-455.125h455.125v455.125zM910.208 554.667h-227.541v227.541h227.541zM910.251-14.251h113.792v-113.792h-113.792v113.792zM568.918 327.082h113.792v-113.792h-113.792v113.792zM682.667 213.333h113.792v-113.792h-113.792v113.792zM568.918 99.541h113.792v-113.792h-113.792v113.792zM682.667-14.251h113.792v-113.792h-113.792v113.792zM796.459 99.541h113.792v-113.792h-113.792v113.792zM796.459 327.082h113.792v-113.792h-113.792v113.792zM910.251 213.333h113.792v-113.792h-113.792v113.792z" />
<glyph unicode="&#xe912;" glyph-name="trash" d="M185.125 731.429l60.709-747.52c0-0.022 0-0.047 0-0.073 0-41.567 33.697-75.264 75.264-75.264 0.026 0 0.051 0 0.077 0h362.858c0.022 0 0.047 0 0.073 0 41.567 0 75.264 33.697 75.264 75.264 0 0.026 0 0.051 0 0.077v-0.004l59.611 747.52zM343.552 50.030l-17.262 599.113h47.543l17.627-599.113zM524.288 50.030h-46.226v599.113h46.299zM658.798 50.030h-47.909l17.481 599.113h47.543zM779.118 824.027h-92.818l-67.657 59.173c-9.027 7.917-20.906 12.778-33.918 12.873h-166.639c-13.205-0.041-25.265-4.908-34.516-12.929l0.066 0.056-67.657-59.173h-92.745c-45.275 0-77.166-21.943-77.166-66.853h709.486c0.512 45.202-31.378 66.853-76.434 66.853z" />
<glyph unicode="&#xe913;" glyph-name="add_circle_inverse" d="M512 896c-282.77 0-512-229.23-512-512s229.23-512 512-512c282.77 0 512 229.23 512 512v0c0 282.77-229.23 512-512 512v0zM734.764 344.62h-183.384v-183.384c0-21.749-17.631-39.38-39.38-39.38s-39.38 17.631-39.38 39.38v0 183.384h-183.384c-21.749 0-39.38 17.631-39.38 39.38s17.631 39.38 39.38 39.38v0h183.384v183.384c0 21.749 17.631 39.38 39.38 39.38s39.38-17.631 39.38-39.38v0-183.384h183.384c21.749 0 39.38-17.631 39.38-39.38s-17.631-39.38-39.38-39.38v0z" />
<glyph unicode="&#xe914;" glyph-name="launch" d="M598 768h298v-298h-86v152l-418-418-60 60 418 418h-152v86zM810 86v298h86v-298q0-34-26-60t-60-26h-596q-36 0-61 25t-25 61v596q0 36 25 61t61 25h298v-86h-298v-596h596z" />
<glyph unicode="&#xe915;" glyph-name="close" d="M50.196 56.34c-17.678-16.581-28.691-40.087-28.691-66.168s11.013-49.584 28.642-66.12l0.048-0.045c17.192-16.354 40.506-26.416 66.168-26.416s48.973 10.062 66.207 26.453l-0.039-0.037 329.926 326.3 327.206-327.206c17.129-17.242 40.855-27.915 67.073-27.915 52.209 0 94.534 42.325 94.534 94.534 0 25.994-10.491 49.535-27.466 66.624l0.005-0.005-329.017 327.206 329.017 329.017c17.678 16.581 28.691 40.087 28.691 66.168s-11.013 49.584-28.642 66.12l-0.048 0.045c-16.665 18.529-40.72 30.131-67.484 30.131-26.334 0-50.045-11.231-66.604-29.164l-0.056-0.061-327.206-328.112-329.017 328.112c-17.134 16.083-40.259 25.965-65.688 25.965-25.893 0-49.394-10.244-66.672-26.9l0.031 0.030c-17.678-16.581-28.691-40.087-28.691-66.168s11.013-49.584 28.642-66.12l0.048-0.045 328.112-329.017z" />
<glyph unicode="&#xe916;" glyph-name="arrow_up" horiz-adv-x="640" d="M336.992 567.616l296-293.6c9.408-9.408 9.408-24.608 0-34.016l-39.616-39.616c-9.408-9.408-24.608-9.408-34.016 0l-239.392 236.992-239.392-236.992c-9.408-9.408-24.608-9.408-34.016 0l-39.616 39.616c-9.408 9.408-9.408 24.608 0 34.016l296 293.6c9.408 9.408 24.608 9.408 34.016 0z" />
<glyph unicode="&#xe917;" glyph-name="chevron_circle_down" d="M512 880c274.016 0 496-222.016 496-496s-222.016-496-496-496-496 222.016-496 496 222.016 496 496 496zM512-16c220.992 0 400 179.008 400 400s-179.008 400-400 400-400-179.008-400-400 179.008-400 400-400zM528.992 199.008c-9.408-9.408-24.608-9.408-34.016 0l-245.6 245.6c-9.408 9.408-9.408 24.608 0 34.016l45.184 45.216c9.408 9.408 24.608 9.408 34.016 0l183.392-183.392 183.392 183.392c9.408 9.408 24.608 9.408 34.016 0l45.184-45.216c9.408-9.408 9.408-24.608 0-34.016z" />
<glyph unicode="&#xe918;" glyph-name="chevron_circle_left" d="M1008 384c0-274.016-222.016-496-496-496s-496 222.016-496 496 222.016 496 496 496 496-222.016 496-496zM112 384c0-220.992 179.008-400 400-400s400 179.008 400 400-179.008 400-400 400-400-179.008-400-400zM327.008 400.992l245.6 245.6c9.408 9.408 24.608 9.408 34.016 0l45.216-45.184c9.408-9.408 9.408-24.608 0-34.016l-183.392-183.392 183.392-183.392c9.408-9.408 9.408-24.608 0-34.016l-45.216-45.184c-9.408-9.408-24.608-9.408-34.016 0l-245.6 245.6c-9.408 9.408-9.408 24.608 0 34.016z" />
<glyph unicode="&#xe919;" glyph-name="check_circle" d="M426 170l384 384-60 62-324-324-152 152-60-60zM512 810q176 0 301-125t125-301-125-301-301-125-301 125-125 301 125 301 301 125z" />
<glyph unicode="&#xe91a;" glyph-name="chevron_circle_right" d="M16 384c0 274.016 222.016 496 496 496s496-222.016 496-496-222.016-496-496-496-496 222.016-496 496zM912 384c0 220.992-179.008 400-400 400s-400-179.008-400-400 179.008-400 400-400 400 179.008 400 400zM696.992 367.008l-245.6-245.6c-9.408-9.408-24.608-9.408-34.016 0l-45.216 45.184c-9.408 9.408-9.408 24.608 0 34.016l183.392 183.392-183.392 183.392c-9.408 9.408-9.408 24.608 0 34.016l45.216 45.184c9.408 9.408 24.608 9.408 34.016 0l245.6-245.6c9.408-9.408 9.408-24.608 0-34.016z" />
<glyph unicode="&#xe91b;" glyph-name="help" d="M515.488 864.013c187.521 0 316.513-104.001 316.513-253.504 0-99.009-48-167.49-140.511-222.017-87.009-50.494-116.511-87.489-116.511-151.487v-39.489h-173.473l-1.504 43.007c-8.511 103.007 27.489 167.010 118.016 219.999 84.512 50.494 120 82.496 120 144.514s-60 107.49-134.4 107.49c-2.25 0.144-4.882 0.223-7.53 0.223-68.715 0-124.633-54.789-126.452-123.064l-0.004-0.167h-177.634c3.489 160.993 122.494 274.496 323.49 274.496zM383.998 7.020c-0.055 1.29-0.089 2.799-0.089 4.32 0 59.275 48.052 107.327 107.327 107.327s107.327-48.052 107.327-107.327c0-59.275-48.052-107.327-107.327-107.327-0.083 0-0.163 0-0.246 0h0.014c-0.682-0.017-1.481-0.027-2.286-0.027-57.246 0-103.766 45.928-104.722 102.942l-0.001 0.090z" />
<glyph unicode="&#xe91c;" glyph-name="call" d="M979.437 103.23c-50.584 44.185-107.748 82.963-169.33 114.31l-4.732 2.186c-52.187 25.035-71.272 24.551-108.21-2.072-30.853-22.039-50.601-42.887-85.995-35.261s-105.123 60.429-172.782 127.823-120.33 137.388-127.823 172.782 13.224 55.272 35.261 85.995c26.445 36.936 27.372 56.021 2.072 108.21-33.384 66.414-72.236 123.654-117.464 175.158l0.793-0.921c-37.951 37.951-46.501 29.665-67.218 22.039-23.77-10.062-44.049-21.041-63.132-33.68l1.424 0.887c-31.985-18.398-57.407-45.039-73.825-77.056l-0.488-1.048c-14.723-31.779-31.779-90.93 55.009-245.333 67.321-122.944 147.356-228.578 240.594-320.904l0.11-0.109 0.528-0.528c92.471-93.281 198.097-173.309 313.913-237.118l7.1-3.586c154.27-86.787 213.598-69.729 245.333-55.009 33.229 16.725 59.959 42.194 77.765 73.414l0.472 0.899c11.752 17.659 22.731 37.939 31.841 59.209l0.952 2.5c7.493 20.717 16.044 29.267-22.17 67.218z" />
<glyph unicode="&#xe91d;" glyph-name="copy" d="M673.664 768h-431.147c-39.633-0.121-71.73-32.217-71.851-71.839v-503.052h71.851v503.040h431.147zM781.44 624.299h-395.179c-39.667-0.097-71.796-32.227-71.893-71.884v-503.006c0.121-39.633 32.217-71.73 71.839-71.851h395.233c39.652 0.097 71.772 32.202 71.893 71.839v503.009c-0.097 39.652-32.202 71.772-71.839 71.893h-0.012zM781.44 49.408h-395.179v502.997h395.221z" />
<glyph unicode="&#xe91e;" glyph-name="help_circle" d="M642 416q40 40 40 96 0 70-50 120t-120 50-120-50-50-120h84q0 34 26 60t60 26 60-26 26-60-26-60l-52-54q-50-54-50-120v-22h84q0 66 50 120zM554 86v84h-84v-84h84zM512 810q176 0 301-125t125-301-125-301-301-125-301 125-125 301 125 301 301 125z" />
<glyph unicode="&#xe91f;" glyph-name="phone_android" d="M736 128v598h-448v-598h448zM598 0v42h-172v-42h172zM682 854q52 0 90-38t38-90v-684q0-52-38-90t-90-38h-340q-52 0-90 38t-38 90v684q0 52 38 90t90 38h340z" />
<glyph unicode="&#xe920;" glyph-name="phone_iphone" d="M682 128v598h-384v-598h384zM490-42q26 0 45 19t19 45-19 45-45 19-45-19-19-45 19-45 45-19zM662 854q44 0 75-32t31-76v-724q0-44-31-76t-75-32h-342q-44 0-75 32t-31 76v724q0 44 31 76t75 32h342z" />
<glyph unicode="&#xe921;" glyph-name="image" d="M159.014 245.425h469.425c7.566 0 13.699 6.133 13.699 13.699 0 3.099-1.029 5.958-2.765 8.254l0.025-0.034-234.74 377.315c-2.483 3.584-6.573 5.901-11.205 5.901s-8.723-2.318-11.176-5.856l-0.029-0.045-234.521-377.589c-1.526-2.19-2.439-4.906-2.439-7.836 0-7.597 6.136-13.762 13.722-13.808h0.004zM636.822 388.164l86.137-136.986c2.402-3.559 6.405-5.878 10.953-5.918h130.965c7.566 0 13.699 6.133 13.699 13.699 0 3.099-1.029 5.958-2.765 8.254l0.025-0.034-151.397 215.452c-2.483 3.584-6.573 5.901-11.205 5.901s-8.723-2.318-11.176-5.856l-0.029-0.045-65.479-79.014c-1.351-2.133-2.153-4.73-2.153-7.515 0-2.961 0.907-5.711 2.459-7.986l-0.032 0.049zM746.082 600.877c34.945 3.664 61.947 32.967 61.947 68.577 0 38.070-30.862 68.932-68.932 68.932-35.61 0-64.913-27.002-68.551-61.648l-0.025-0.299c-0.21-2.021-0.329-4.367-0.329-6.74 0-38.191 30.96-69.151 69.151-69.151 2.374 0 4.719 0.12 7.031 0.353l-0.291-0.024zM945.205 896h-866.411c-0.033 0-0.071 0-0.11 0-43.456 0-78.685-35.228-78.685-78.685 0-0.039 0-0.077 0-0.116v0.006-866.411c0-0.033 0-0.071 0-0.11 0-43.456 35.228-78.685 78.685-78.685 0.039 0 0.077 0 0.116 0h866.405c0.033 0 0.071 0 0.11 0 43.456 0 78.685 35.228 78.685 78.685 0 0.019 0 0.039 0 0.058v-0.003 866.466c0 0.033 0 0.071 0 0.11 0 43.456-35.228 78.685-78.685 78.685-0.039 0-0.077 0-0.116 0h0.006zM938.575 206.795c-0.031-10.852-8.82-19.64-19.668-19.671h-813.811c-10.852 0.031-19.64 8.82-19.671 19.668v584.113c0.031 10.852 8.82 19.64 19.668 19.671h814.030c10.852-0.031 19.64-8.82 19.671-19.668v-584.113z" />
<glyph unicode="&#xe922;" glyph-name="camera" d="M648.704 344.218c0-82.569-66.935-149.504-149.504-149.504s-149.504 66.935-149.504 149.504c0 82.569 66.935 149.504 149.504 149.504v0c82.569 0 149.504-66.935 149.504-149.504v0zM919.040 643.226h-141.619c-12.373 0.071-23.475 5.458-31.147 13.99l-0.034 0.039c-73.83 82.688-101.683 110.746-131.84 110.746h-222.31c-30.413 0-60.314-28.058-134.4-111.002-7.585-8.445-18.531-13.742-30.715-13.773h-10.911v20.787c-0.029 11.469-9.318 20.758-20.784 20.787h-67.638c-11.469-0.029-20.758-9.318-20.787-20.784v-20.79h-19.507c-0.936 0.037-2.035 0.058-3.138 0.058-45.008 0-81.78-35.261-84.2-79.664l-0.009-0.215v-457.626c1.832-47.221 39.776-85.005 86.893-86.575l0.147-0.004h832c44.291 2.182 79.375 38.623 79.375 83.259 0 1.168-0.024 2.33-0.072 3.486l0.005-0.166v457.626c0.022 0.693 0.035 1.508 0.035 2.326 0 42.811-34.705 77.517-77.517 77.517-0.642 0-1.283-0.008-1.922-0.023l0.095 0.002zM509.44 122.266c-3.092-0.154-6.714-0.241-10.357-0.241-122.75 0-222.259 99.509-222.259 222.259s99.509 222.259 222.259 222.259c122.75 0 222.259-99.509 222.259-222.259 0-3.643-0.088-7.265-0.261-10.865l0.019 0.508c-5.633-114.56-97.101-206.028-211.142-211.64l-0.519-0.020zM748.646 492.493c-18.663 0-33.792 15.129-33.792 33.792s15.129 33.792 33.792 33.792c18.663 0 33.792-15.129 33.792-33.792v0c0-0.030 0-0.066 0-0.103 0-18.599-15.048-33.682-33.633-33.741h-0.006z" />
<glyph unicode="&#xe923;" glyph-name="dot" d="M605.091 389.818c0-64.266-52.098-116.364-116.364-116.364s-116.364 52.098-116.364 116.364c0 64.266 52.098 116.364 116.364 116.364s116.364-52.098 116.364-116.364z" />
<glyph unicode="&#xe924;" glyph-name="eye" d="M505.945 717.913c-181.782 0-325.009-114.421-496.506-301.368-5.882-6.334-9.491-14.849-9.491-24.208 0-9.243 3.52-17.663 9.294-23.993l-0.025 0.028c146.922-162.104 276.035-301.59 496.729-301.59 218.157 0 381.418 175.683 497.619 302.748 5.786 6.311 9.332 14.759 9.332 24.035 0 8.68-3.105 16.635-8.265 22.814l0.046-0.057c-118.472 143.805-282.357 301.59-498.733 301.59zM515.873 189.084c-2.832-0.141-6.149-0.221-9.485-0.221-112.37 0-203.464 91.094-203.464 203.464s91.094 203.464 203.464 203.464c112.37 0 203.464-91.094 203.464-203.464 0-3.336-0.080-6.653-0.239-9.95l0.018 0.465c-5.112-104.88-88.874-188.626-193.29-193.696l-0.469-0.018zM506.39 498.643c0 0.089 0 0.195 0 0.301 0 13.625 2.565 26.651 7.239 38.621l-0.248-0.723c-2.271 0-4.452 0.223-6.99 0.223-79.913 0-144.696-64.782-144.696-144.696s64.782-144.696 144.696-144.696c79.913 0 144.696 64.782 144.696 144.696v0c0 2.938-0.223 5.877-0.223 8.904-12.084-5.601-26.225-8.878-41.129-8.904h-0.009c-57.271 0.923-103.343 47.566-103.343 104.969 0 0.458 0.003 0.916 0.009 1.373l-0.001-0.069z" />
<glyph unicode="&#xe925;" glyph-name="eye_off" d="M134.759 806.843c-5.76 5.644-13.658 9.12-22.371 9.12-17.668 0-31.994-14.324-31.994-31.994 0-8.712 3.484-16.605 9.127-22.377l799.828-800.273c5.744-5.744 13.673-9.292 22.434-9.292 3.052 0 6.014 0.432 8.808 1.238l-0.225-0.056c5.683 1.497 10.555 4.402 14.391 8.326l0.006 0.006c5.747 5.766 9.295 13.724 9.295 22.505s-3.548 16.739-9.296 22.506l0.001-0.001zM521.493 181.833c-2.883-0.144-6.25-0.233-9.641-0.233-111.726 0-202.297 90.575-202.297 202.297 0 31.545 7.216 61.401 20.097 88.007l-0.524-1.21-120.113 120.38c-70.078-56.785-132.663-116.674-190.025-181.305l-1.421-1.629c-5.857-6.3-9.444-14.774-9.444-24.091 0-9.201 3.502-17.577 9.251-23.878l-0.028 0.028c146.203-161.314 274.693-300.124 494.305-300.124 67.452 0.558 131.062 16.443 187.693 44.329l-2.543-1.131-97.917 97.869c-22.62-10.933-49.036-17.907-76.916-19.302l-0.48-0.023zM1006.586 361.577c5.754 6.284 9.286 14.687 9.286 23.917 0 8.637-3.092 16.551-8.228 22.704l0.044-0.057c-117.677 142.885-280.757 299.901-496.213 299.901-67.163-0.069-130.629-15.849-186.933-43.858l2.451 1.108 98.31-98.31c22.537 11.082 48.892 18.087 76.754 19.349l0.428 0.018c2.883 0.144 6.25 0.233 9.641 0.233 111.726 0 202.297-90.575 202.297-202.297 0-31.545-7.216-61.401-20.097-88.007l0.524 1.21 120.38-120.38c70.261 56.828 132.856 117.245 189.824 182.69l1.537 1.802zM368.507 373.057c5.86-70.709 61.806-126.658 131.992-132.478l0.52-0.031c3.317-0.279 7.169-0.437 11.065-0.437 14.835 0 29.134 2.296 42.568 6.562l-1-0.273-179.521 179.565c-3.839-12.499-6.049-26.87-6.049-41.767 0-3.916 0.152-7.801 0.46-11.645l-0.028 0.514zM656.046 384.082c0 2.926-0.223 5.851-0.223 8.862-12.022-5.576-26.101-8.831-40.928-8.862h-0.011c-2.481 0-4.739 0-6.954 0.223l41.872-42.091c3.96 12.524 6.238 26.926 6.244 41.868v0.004zM512.058 489.843c0 0.086-0.001 0.19-0.001 0.298 0 13.56 2.555 26.523 7.207 38.431l-0.244-0.723c-2.258 0-4.431 0.223-6.954 0.223-14.856-0.028-29.165-2.326-42.612-6.562l1.005 0.275 42.091-42.091c-0.265 3.371-0.488 6.778-0.488 10.145z" />
<glyph unicode="&#xe926;" glyph-name="chevron_circle_up" d="M528.992 568.992l245.6-245.6c9.408-9.408 9.408-24.608 0-34.016l-45.184-45.216c-9.408-9.408-24.608-9.408-34.016 0l-183.392 183.392-183.392-183.392c-9.408-9.408-24.608-9.408-34.016 0l-45.184 45.216c-9.408 9.408-9.408 24.608 0 34.016l245.6 245.6c9.408 9.408 24.608 9.408 34.016 0zM1008 384c0-274.016-222.016-496-496-496s-496 222.016-496 496 222.016 496 496 496 496-222.016 496-496zM912 384c0 220.992-179.008 400-400 400s-400-179.008-400-400 179.008-400 400-400 400 179.008 400 400z" />
<glyph unicode="&#xe927;" glyph-name="add_circle" d="M734.362 423.402h-183.035v183.035c0 21.74-17.624 39.365-39.365 39.365s-39.365-17.624-39.365-39.365v0-183.035h-183.035c-0.498 0.023-1.081 0.037-1.668 0.037-20.84 0-37.734-16.894-37.734-37.734 0-0.587 0.013-1.17 0.040-1.75l-0.003 0.082c-0.014-0.382-0.022-0.831-0.022-1.282 0-21.044 17.060-38.104 38.104-38.104 0.451 0 0.9 0.008 1.347 0.023l-0.065-0.002h183.035v-183.035c-0.012-0.359-0.019-0.781-0.019-1.205 0-21.085 17.093-38.179 38.179-38.179 0.424 0 0.846 0.007 1.266 0.021l-0.061-0.002c0.044 0 0.096 0 0.149 0 21.659 0 39.216 17.558 39.216 39.216 0 0.052 0 0.104 0 0.157v-0.008 183.035h183.035c21.74 0 39.365 17.624 39.365 39.365s-17.624 39.365-39.365 39.365v0zM511.963 827.13c244.512-0.105 442.686-198.345 442.686-442.871 0-244.591-198.28-442.871-442.871-442.871s-442.871 198.28-442.871 442.871c0 122.286 49.563 232.996 129.696 313.139l-0.001-0.001c79.728 80.139 190.092 129.735 312.040 129.735 0.464 0 0.928-0.001 1.392-0.002h-0.072zM511.963 896.074c-282.749 0-511.963-229.214-511.963-511.963s229.214-511.963 511.963-511.963c282.723 0 511.921 229.171 511.963 511.885v0.004c0 0.022 0 0.048 0 0.074 0 282.708-229.18 511.889-511.889 511.889-0.026 0-0.052 0-0.078 0h0.004z" />
<glyph unicode="&#xe928;" glyph-name="arrow_drop_down" d="M298 470h428l-214-214z" />
<glyph unicode="&#xe929;" glyph-name="local_grocery_store" d="M726 128q34 0 59-26t25-60-25-59-59-25-60 25-26 59 26 60 60 26zM42 810h140l40-84h632q18 0 30-13t12-31q0-2-6-20l-152-276q-24-44-74-44h-318l-38-70-2-6q0-10 10-10h494v-86h-512q-34 0-59 26t-25 60q0 20 10 40l58 106-154 324h-86v84zM298 128q34 0 60-26t26-60-26-59-60-25-59 25-25 59 25 60 59 26z" />
<glyph unicode="&#xe92a;" glyph-name="pSIM" horiz-adv-x="1479" d="M1346.967 896h-1033.473c-36.567-0.026-69.635-14.985-93.44-39.108l-0.014-0.014-181.326-183.477c-23.963-24.271-38.764-57.637-38.764-94.46 0-0.024 0-0.049 0-0.073v0.004-573.116c-0.001-0.183-0.001-0.401-0.001-0.618 0-73.208 59.085-132.615 132.17-133.137h1214.798c73.112 0.551 132.168 59.947 132.168 133.136 0 0.217-0.001 0.435-0.002 0.652v-0.034 756.491c0.001 0.184 0.001 0.401 0.001 0.618 0 73.172-59.027 132.557-132.062 133.136h-0.055zM1309.227 669.918v-59.503h-180.097v116.293h123.206c31.373-0.029 56.804-25.425 56.892-56.781v-0.008zM812.256 334.559v-118.239h-181.326v118.239zM630.93 401.59v118.29h181.326v-118.29zM1129.129 358.115h180.097v-118.29h-180.097zM1129.129 425.145v118.29h180.097v-118.29zM1062.252 726.707v-678.297h-183.067v678.297zM687.924 726.707h124.383v-140.002h-181.326v83.059c0 31.449 25.494 56.943 56.943 56.943v0zM630.981 105.302v43.834h181.326v-100.777h-124.383c-0.015 0-0.033 0-0.051 0-31.449 0-56.943 25.494-56.943 56.943 0 0.054 0 0.108 0 0.162v-0.008zM1252.335 48.41h-123.206v124.23h180.097v-67.338c-0.116-31.361-25.566-56.738-56.943-56.738 0 0 0 0 0 0v0z" />
<glyph unicode="&#xe92b;" glyph-name="check" d="M398.243 99.281l-284.486 284.439 80.198 80.198 204.241-203.683 431.802 431.802 80.198-80.803z" />
<glyph unicode="&#xe92c;" glyph-name="file_pdf" horiz-adv-x="768" d="M363.808 383.808c-10.016 32-9.792 93.792-4 93.792 16.8 0 15.2-73.792 4-93.792zM360.384 289.408c19.2-34.816 43.616-62.4 68.992-81.6-47.808-9.408-89.216-29.792-125.792-43.808 22.208 38.816 41.408 84.992 56.8 125.408zM172.192 39.808c11.616 31.392 56.416 67.808 69.792 80.384-43.392-69.6-69.792-82.016-69.792-80.384zM496 576h272v-656c0-26.592-21.408-48-48-48h-672c-26.592 0-48 21.408-48 48v928c0 26.592 21.408 48 48 48h400v-272c0-26.4 21.6-48 48-48zM480 232.384c-40 24.384-66.592 58.016-85.408 107.616 8.992 36.992 23.2 93.184 12.384 128.384-9.408 58.784-84.8 52.992-95.616 13.6-10.016-36.608-0.8-88.192 16.192-154.016-23.2-55.2-57.408-129.184-81.6-171.616-0.192 0-0.192-0.192-0.416-0.192-54.208-27.808-147.2-88.992-108.992-136 11.2-13.792 32-20 43.008-20 35.808 0 71.392 36 122.208 123.616 51.616 16.992 108.192 38.208 158.016 46.4 43.392-23.616 94.208-39.008 128-39.008 58.4 0 62.4 64 39.392 86.816-27.808 27.2-108.608 19.392-147.2 14.4zM754.016 685.984c8.992-8.992 14.016-21.184 14.016-33.792v-12.192h-256v256h12c12.8 0 24.992-4.992 34.016-14.016zM605.792 175.392c0 0-11.392-13.6-85.6 18.016 80.608 5.792 93.792-12.608 85.6-18.016z" />
<glyph unicode="&#xe92d;" glyph-name="times" horiz-adv-x="640" d="M415.2 384l215.456-215.424c12.448-12.48 12.448-32.704 0-45.152l-50.048-50.048c-12.48-12.448-32.704-12.448-45.152 0l-215.424 215.456-215.424-215.456c-12.48-12.448-32.704-12.448-45.152 0l-50.048 50.048c-12.448 12.48-12.448 32.704 0 45.152l215.456 215.424-215.456 215.424c-12.448 12.48-12.448 32.704 0 45.152l50.048 50.048c12.48 12.448 32.704 12.448 45.152 0l215.424-215.456 215.424 215.456c12.48 12.448 32.704 12.448 45.152 0l50.048-50.048c12.448-12.48 12.448-32.704 0-45.152z" />
<glyph unicode="&#xe92e;" glyph-name="circle" d="M512 880c274.016 0 496-222.016 496-496s-222.016-496-496-496-496 222.016-496 496 222.016 496 496 496zM512-16c220.992 0 400 179.008 400 400s-179.008 400-400 400-400-179.008-400-400 179.008-400 400-400z" />
<glyph unicode="&#xe92f;" glyph-name="pen" d="M581.472 709.536l256.032-256.032-555.968-555.968-228.288-25.184c-30.56-3.392-56.384 22.464-52.992 53.024l25.408 228.448zM995.872 747.648c37.504-37.504 37.504-98.304 0-135.808l-113.088-113.088-256.032 256.032 113.088 113.088c37.504 37.504 98.336 37.504 135.808 0z" />
<glyph unicode="&#xe930;" glyph-name="login" d="M495.616 896v-1020.343l386.121 205.093v610.158zM637.55 290.597c0-15.674-12.706-28.379-28.379-28.379s-28.379 12.706-28.379 28.379v170.35c0 15.674 12.706 28.379 28.379 28.379s28.379-12.706 28.379-28.379v0zM563.419-53.138h-338.944v386.779h33.902v-352.768h271.141v813.458h-271.141v-352.549h-33.902v386.45h338.944v-881.371zM337.481 507.465l94.208-98.743c5.224-5.459 8.439-12.878 8.439-21.047s-3.216-15.588-8.45-21.058l0.011 0.011-94.208-98.999c-5.078-5.468-12.307-8.879-20.333-8.879-7.298 0-13.938 2.821-18.889 7.431l0.017-0.015-1.463 1.463c-5.183 5.544-8.365 13.015-8.365 21.23s3.182 15.685 8.381 21.247l-0.016-0.018 45.275 47.543h-203.739c-15.972 0.812-28.615 13.961-28.615 30.062s12.643 29.249 28.543 30.059l0.072 0.003h203.886l-45.275 47.543c-5.183 5.544-8.365 13.015-8.365 21.23s3.182 15.685 8.381 21.247l-0.016-0.018c5.094 5.308 12.247 8.606 20.17 8.606 7.486 0 14.285-2.944 19.301-7.738l-0.011 0.010z" />
<glyph unicode="&#xe931;" glyph-name="icon_faq_q" d="M512 896c-282.77 0-512-229.23-512-512s229.23-512 512-512c282.77 0 512 229.23 512 512v0c-0.437 282.594-229.406 511.564-511.959 512h-0.041zM687.232 192.853c10.969-10.021 22.831-19.717 35.211-28.745l1.184-0.823-43.221-45.525c-16.933 19.547-34.029 37.359-51.983 54.269l-0.369 0.344c-26.897-15.813-59.247-25.153-93.778-25.153-2.237 0-4.464 0.039-6.682 0.117l0.321-0.009c-2.45-0.114-5.323-0.179-8.21-0.179-51.85 0-98.812 20.93-132.898 54.802l0.010-0.010c-38.284 41.569-61.756 97.295-61.756 158.502 0 4.279 0.115 8.531 0.341 12.754l-0.025-0.589c0 136.533 81.92 227.541 204.8 227.541s202.539-88.747 202.539-225.28c0.007-0.724 0.011-1.58 0.011-2.437 0-35.143-6.691-68.724-18.869-99.537l0.639 1.835c-9.106-24.998-23.089-46.299-40.923-63.666l-0.037-0.036zM525.653 534.187c-0.933 0.028-2.030 0.043-3.131 0.043-31.763 0-60.471-13.083-81.028-34.154l-0.022-0.023c-27.124-31.525-43.639-72.853-43.639-118.040 0-4.105 0.136-8.178 0.405-12.215l-0.029 0.548c0-97.835 50.048-163.84 129.707-163.84 1.383-0.072 3.002-0.112 4.63-0.112 16.643 0 32.291 4.262 45.912 11.753l-0.494-0.249c-13.12 13.98-27.245 26.672-42.383 38.093l-0.839 0.606 45.525 43.221c13.374-15.711 27.51-29.847 42.697-42.786l0.524-0.435c21.759 27.237 34.916 62.175 34.916 100.187 0 5.588-0.284 11.109-0.839 16.55l0.056-0.684c0.136 2.647 0.214 5.746 0.214 8.864 0 45.313-16.427 86.79-43.652 118.799l0.216-0.261c-22.708 21.159-53.272 34.147-86.871 34.147-0.66 0-1.318-0.005-1.975-0.015l0.099 0.001z" />
<glyph unicode="&#xe932;" glyph-name="icon_faq_a" d="M511.957 563.797c-3.747-11.873-7.61-21.679-12.045-31.165l0.653 1.554-56.875-161.664h136.533l-59.179 159.36c-2.81 12.74-5.938 23.418-9.682 33.802l0.594-1.887zM512 896c-282.77 0-512-229.23-512-512s229.23-512 512-512c282.77 0 512 229.23 512 512v0c-0.437 282.594-229.406 511.564-511.959 512h-0.041zM637.141 190.592c-3.191 21.269-8.748 40.414-16.497 58.393l0.582-1.518-22.741 59.179h-175.232l-22.741-59.179c-6.827-25.045-9.088-34.133-13.653-56.875h-88.747c9.518 17.146 19.447 38.111 28.146 59.704l1.422 3.997 120.619 314.027c6.028 14.371 12.247 32.541 17.401 51.154l0.817 3.46h95.573c5.268-21.259 11.492-39.455 19.070-56.929l-0.894 2.315 120.619-314.027c13.653-34.133 20.48-50.048 27.307-63.701z" />
<glyph unicode="&#xe933;" glyph-name="arrow_to_up" horiz-adv-x="896" d="M69.801 317l-44.4 44.4c-18.801 18.799-18.801 49.199 0 67.799l388.6 388.8c18.801 18.801 49.199 18.801 67.801 0l388.6-388.6c18.799-18.801 18.799-49.201 0-67.801l-44.4-44.4c-19-19-50-18.6-68.6 0.801l-229.4 240.8v-574.8c0-26.6-21.4-48-48-48h-64c-26.6 0-48 21.4-48 48v574.8l-229.6-241c-18.6-19.602-49.6-20-68.6-0.801z" />
<glyph unicode="&#xe934;" glyph-name="arrow_drop_right" d="M426 170v428l214-214z" />
<glyph unicode="&#xe935;" glyph-name="arrow_drop_up" d="M726 298h-428l214 214z" />
<glyph unicode="&#xe936;" glyph-name="arrow_drop_left" d="M598 598v-428l-214 214z" />
<glyph unicode="&#xe937;" glyph-name="arrow_to_right" horiz-adv-x="896" d="M381 762.2l44.4 44.4c18.799 18.801 49.199 18.801 67.799 0l388.8-388.6c18.801-18.801 18.801-49.199 0-67.801l-388.8-388.798c-18.799-18.801-49.199-18.801-67.799 0l-44.4 44.4c-19 19-18.6 50 0.801 68.6l241 229.6h-574.8c-26.6 0-48 21.4-48 48v64c0 26.6 21.4 48 48 48h574.8l-241 229.6c-19.602 18.6-20 49.6-0.801 68.6z" />
<glyph unicode="&#xe938;" glyph-name="arrow_to_left" horiz-adv-x="896" d="M515 5.801l-44.4-44.4c-18.799-18.801-49.199-18.801-67.799 0l-388.8 388.6c-18.801 18.801-18.801 49.199 0 67.801l388.8 388.798c18.799 18.801 49.199 18.801 67.799 0l44.4-44.4c19-19 18.6-50-0.801-68.6l-241-229.6h574.8c26.6 0 48-21.4 48-48v-64c0-26.6-21.4-48-48-48h-574.8l241-229.6c19.602-18.6 20-49.6 0.801-68.6z" />
</font>
</defs>
</svg>
